#TITLE:Last Battle;
#SUBTITLE:Pokemon;
#ARTIST:Nintendo;
#TITLETRANSLIT:;
#SUBTITLETRANSLIT:;
#ARTISTTRANSLIT:;
#CREDIT:;
#BANNER:Last Battle.jpg;
#BACKGROUND:Last Battle-bg.jpg;
#LYRICSPATH:;
#CDTITLE:!danceguyTitle.png;
#MUSIC:Last Battle.mp3;
#OFFSET:0.435;
#SAMPLESTART:35.166;
#SAMPLELENGTH:12.000;
#SELECTABLE:YES;
#BPMS:0.000=170.620;
#STOPS:;
#BGCHANGES:;
// cache tags:
#FIRSTBEAT:4.000;
#LASTBEAT:216.000;
#SONGFILENAME:Songs/Music V.I.P ^_^/Last Battle (dAnceguy117)/Last Battle.sm;
#HASMUSIC:1;
#HASBANNER:1;
#MUSICLENGTH:82.468;
// end cache tags

//---------------dance-single - ----------------
#NOTES:
     dance-single:
     :
     Hard:
     11:
     0.989,1.000,0.352,0.667,0.758,487.000,29.000,55.000,0.000,0.000:

0000
0000
0000
0000
,
0010
1000
0001
0100
0001
1000
0100
0010
0100
1000
0010
0100
0001
0010
0100
1000
,
0001
0100
0010
1000
0001
1000
0100
0010
0001
0010
0100
1000
0001
0100
0010
1000
,
0100
1000
0000
0000
0000
0000
0000
0000
0001
1000
0000
0000
0000
0000
0000
0000
,
0010
1000
0000
0000
0000
0000
0000
0000
0001
1000
0000
0000
0200
0000
0000
0000
,
1300
0100
0000
0000
0020
0000
0000
0000
0031
0100
0000
0000
0020
0000
0000
0000
,
1030
0001
0000
0000
0020
0000
0000
0000
0031
1000
0000
0000
0100
0000
0000
0000
,
1000
0001
0010
0100
1000
0100
0010
0001
1000
0001
0010
0100
1000
0100
0010
0001
,
1000
0001
0010
0100
1000
0100
0010
0001
1000
0001
0010
0100
1000
0100
0010
0001
,
1000
0001
0100
0010
1000
0010
0100
0001
1000
0001
0100
0010
1000
0010
0100
0001
,
1000
0001
0100
0010
1000
0010
0100
0001
1000
0001
0000
0000
0200
0000
0000
0000
,
0310
1001
0000
0000
0002
0000
0000
0000
1003
0110
0000
0000
0020
0000
0000
0000
,
0031
1100
0000
0000
2000
0000
0000
0000
3010
0101
0000
0000
0002
0000
0000
0000
,
2003
0000
0000
0000
3100
0000
0010
0000
0100
0000
0010
0001
1000
0001
0000
0001
,
0100
0000
0010
0000
0000
1000
0100
0010
0001
1000
0000
0010
0100
0000
0001
1000
,
0001
1010
0000
0000
0020
0000
0000
0000
1030
0101
0000
0000
0002
0000
0000
0000
,
0103
1010
0000
0000
2000
0000
0000
0000
3001
0110
0000
0000
0200
0000
0000
0000
,
0302
0000
0103
0010
0100
0010
0100
0010
,
1000
0001
0010
0100
1000
0000
0010
0000
1000
0000
0010
0000
1000
0000
0010
0000
,
0100
0000
0000
0100
0000
0000
0100
0000
0001
0100
0010
1000
0001
0010
0100
1000
,
0010
0100
0001
1000
0100
0010
0001
0100
0010
1000
0100
0010
0001
0100
0010
1000
,
0001
1000
0000
0000
0200
0000
0000
0000
1300
0001
0000
0000
0020
0000
0000
0000
,
0031
1000
0000
0000
0200
0000
0000
0000
1300
0001
0200
0000
0000
0000
0301
0000
,
1000
0100
0010
0001
0010
0100
1000
0001
0100
0010
1000
0010
0100
0001
1000
0010
,
1000
0001
0010
0100
1000
0001
0100
0010
1000
0000
0200
0000
0000
0000
0310
0000
,
0001
0000
1000
0010
0100
0000
0001
1000
0100
0000
0010
0001
0100
0000
0010
1000
,
0001
0000
0010
0100
0000
0000
0010
0100
0000
0000
0010
0100
0000
0000
0010
0100
,
1000
0000
0001
0100
0010
0000
1000
0001
0010
0000
0100
1000
0001
0000
0100
0010
,
1000
0000
0001
1000
0000
0000
0001
1000
0000
0000
0001
1000
0000
0000
0001
1000
,
0010
0000
0100
0001
0010
0000
0100
1000
0001
0000
0010
0100
1000
0000
0010
0100
,
0001
0110
0110
0001
0110
0110
0001
0110
,
1000
0000
0011
0000
0011
0000
1000
0000
0011
0000
0011
0000
1000
0000
0001
1000
,
0020
1000
0100
1000
0100
1000
0100
1000
,
2030
0001
0010
0001
0010
0001
0010
0001
,
3002
1000
0023
0100
0001
0100
0001
0100
,
0230
0000
1000
0000
2300
0000
0001
0000
0100
0000
0001
0000
3100
0010
0001
1000
,
0021
1000
0001
1000
0001
1000
0001
1030
,
0102
0010
0100
0010
0100
0010
0100
0013
,
2010
0001
0100
0001
0100
0001
0100
3001
,
0120
1030
0001
1000
0012
0103
0010
0100
,
1010
0001
0110
1000
0100
1000
0100
1000
,
0101
0010
1001
0100
0010
0100
0010
1000
,
0002
2003
3200
2300
3002
2003
3020
2030
,
3000
0000
0100
0000
1000
0000
0001
0000
1000
0000
0001
0000
0010
0001
1000
0100
,
0020
0100
0001
0100
0032
0100
1000
0100
,
2003
0100
0010
0100
3020
1000
0100
0001
,
0230
0010
0302
1000
0100
1003
0100
1000
,
0020
0100
1000
0100
2030
0001
0100
0001
,
3200
0010
1000
0010
2300
0001
0010
0001
,
3020
1000
0100
1000
0230
1000
0010
0001
,
0302
1000
0203
0001
0010
0001
0010
0001
,
0320
0100
1000
0100
2030
0001
0100
3001
,
0110
1000
0001
0000
0001
0100
0010
0000
,
1100
0001
1010
0000
0100
0010
1000
0000
,
0010
0000
0000
0000
;
